Классический форум-трекер
canvas not supported
Нас вместе: 4 151 245

Бриллиантовая рука (1968) DVD9 [hand made]


 
 
RSS
Начать новую тему   Ответить на тему    Торрент-трекер NNM-Club -> Остальное -> hand made * video
Автор Сообщение
Кот Леон ®
Стаж: 10 лет 7 мес.
Сообщений: 24
Ratio: 14.492
Поблагодарили: 610
0%
ussr.gif
Бриллиантовая рука (1968) DVD9
Жанр: Комедия

Описание:
Семён Семёнович Горбунков, простой советский гражданин, попал в первый раз за границу по турпутёвке и сразу же в прямом смысле слова поскользнулся на ровном месте. Лишь на миг потеряв в беспамятстве советскую бдительность и осторожность, славный малый и добропорядочный семьянин Семён Семёнович потом с лихвой послужил на благо родного отечества, хотя был вынужден кривить душой и притворяться перед законной женой, детьми, сослуживцами, соседями, грозной женщиной-управдомом и роковой красоткой-блондинкой, выдавая себя не за того, кем он являлся после возвращения из-за рубежа.
(Из рецензии С.Кудрявцева)

Доп. информация:
Причиной, побудившей меня взяться за перекодирование видеодорожки, является неправильное соотношение сторон в оригинальном реставрированном DVD9 Крупного плана. Кроме того на изображении присутствуют чёрные полосы по бокам. В процессе перекодирования чёрные полосы по бокам обрезаны, добавлены чёрные полосы сверху и снизу для получения правильного соотношения сторон.
Работы по пересборке кривого крупноплановского диска выполнены AVV_UA, за что ему огромное спасибо! Отдельная благодарность Prez за консультацию.
Полная реставрация изображения и звука. Правильные пропорции кадра. (Кот Леон)

Бонусы: Биографии и фильмографии А. Папанова, Ю. Никулина, Л. Гайдая, А. Миронова и Н. Мордюковой.

Режиссер: Леонид Гайдай
Актеры: Юрий Никулин, Нина Гребешкова, Андрей Миронов, Анатолий Папанов, Станислав Чекан, Владимир Гуляев, Нонна Мордюкова, Светлана Светличная, Роман Филиппов, Григорий Шпигель

Продолжительность: 1:34:19



Релиз от: Кот Леон

Видеокодек: MPEG-2
Битрейт видео: ~9000 Кбит/сек
Размер кадра: 720x576
Качество видео: DVD9
Аудиокодек: AC3
Битрейт аудио 1: 192 Кбит/сек, 1ch
Битрейт аудио 2: 448 Кбит/сек, 6ch
Общее
Полное имя : D:\Кино\Бриллиантовая рука\VIDEO_TS\VTS_02_1.VOB
Формат : MPEG-PS
Размер файла : 1024 Мбайт
Продолжительность : 14 м.
Режим общего битрейта : Переменный
Общий поток : 9803 Кбит/сек

Видео
Идентификатор : 224 (0xE0)
Формат : MPEG Video
Версия формата : Version 2
Профиль формата : Main@Main
Параметр BVOP формата : Да
Параметр матрицы формата : Выборочная
Продолжительность : 14 м.
Вид битрейта : Переменный
Битрейт : 9000 Кбит/сек
Ширина : 720 пикселей
Высота : 576 пикселей
Соотношение сторон : 16:9
Частота кадров : 25,000 кадров/сек
Стандарт вещания : PAL
Цветовое пространство : YUV
Субдискретизация насыщенности : 4:2:0
Битовая глубина : 8 бит
Тип развёртки : Чересстрочная
Порядок развёртки : Верхнее поле первое
Метод сжатия : С потерями
Бит/(Пиксели*Кадры) : 0.868
Размер потока : 937 Мбайт (91%)

Аудио #1
Идентификатор : 189 (0xBD)-128 (0x80)
Формат : AC-3
Формат/Информация : Audio Coding 3
Расширение режима : CM (complete main)
Параметр Endianness формата : Big
Режим смешивания : DVD-Video
Продолжительность : 14 м.
Вид битрейта : Постоянный
Битрейт : 192 Кбит/сек
Каналы : 1 канал
Расположение каналов : Front: C
Частота : 48,0 КГц
Битовая глубина : 16 бит
Метод сжатия : С потерями
Задержка видео : 145 мс.
Размер потока : 20,0 Мбайт (2%)

Аудио #2
Идентификатор : 189 (0xBD)-129 (0x81)
Формат : AC-3
Формат/Информация : Audio Coding 3
Расширение режима : CM (complete main)
Параметр Endianness формата : Big
Режим смешивания : DVD-Video
Продолжительность : 14 м.
Вид битрейта : Постоянный
Битрейт : 448 Кбит/сек
Каналы : 6 каналов
Расположение каналов : Front: L C R, Side: L R, LFE
Частота : 48,0 КГц
Битовая глубина : 16 бит
Метод сжатия : С потерями
Задержка видео : 145 мс.
Размер потока : 46,8 Мбайт (5%)
Title: Бриллиантовая рука
Size: 6.99 Gb ( 7 329 402,00 KBytes ) - DVD-9
Enabled regions: 1, 2, 3, 4, 5, 6, 7, 8

VTS_01 :
Play Length: 00:00:00
Video: PAL 16:9 (720x576) VBR, Auto Letterboxed

VTS_02 :
Play Length: 01:34:19
Video: PAL 16:9 (720x576) VBR, Auto Letterboxed
Audio:
Russian, AC3, 1/0 (C) ch, 192 kbps, Delay 145 mSec
Russian, AC3, 3/2 (L,C,R,SL,SR)+LFE ch, 448 kbps, Delay 145 mSec

Subtitles:
Russian

VTS_03 :
Play Length: 00:00:00
Video: PAL 4:3 (720x576) VBR

VTS_04 :
Play Length: 00:00:00
Video: PAL 4:3 (720x576) VBR
Скриншоты:

Время раздачи: 24/7 мультитрекер
[NNMClub.to]_Pyka.torrent
 Торрент: Платиновая раздача  Зарегистрирован
 
Скачать


Примагнититься
 Зарегистрирован:   22 Мар 2021 14:05:38
 Размер:   7.02 GB  (
 Рейтинг:   4.9 (Голосов: 62)
 Поблагодарили:   133
 Проверка:   Оформление проверено модератором 22 Мар 2021 17:22:50
Как cкачать  ·  Как раздать  ·  Правильно оформить  ·  Поднять ратио!  

_________________
Всех не пересажаете!
weber70
Стаж: 12 лет 9 мес.
Сообщений: 804
Ratio: 5.005
Поблагодарили: 269
100%
pirates.png
в mkv формате есть у кого?
viktor561
Гость
weber70 писал(а): Перейти к сообщению
в mkv формате есть у кого?


http://www.nnm-club.me/?q=%E1%F0%E8%EB%EB%E8%E0%ED%F2%EE%E2%E0%FF+%F0%F3%EA%E0&w=title - поищите здесь
alicenine212
Стаж: 2 года 4 мес.
Сообщений: 13
2.22%
Раздайте пожалуйста файл! Заранее спасибо!
Кот Леон ®
Стаж: 10 лет 7 мес.
Сообщений: 24
Ratio: 14.492
Поблагодарили: 610
0%
ussr.gif
alicenine212 писал(а): Перейти к сообщению
Раздайте пожалуйста файл! Заранее спасибо!

Встал на раздачу - качайте)

Добавлено спустя 7 минут 54 секунды:

weber70 писал(а): Перейти к сообщению
в mkv формате есть у кого?

Если вы спрашиваете именно про ремукс этого ДВД-9 с исправленными пропорциями, то по правилам форума (да и многих других форумов) не разрешается выкладывать ремуксы ДВД, если есть блюрей. Но вы можете легко сами сделать мкв из ДВД простой программой MakeMkv. Хотя сейчас выбор в пользу ремуксов блюреев очевиден.
Либо искать мкв-рипы, вплоть до блюрей-рипов.

Ремукс (в мкв) тут - Бриллиантовая рука (1968) DVDRemux
Кот Леон ®
Стаж: 10 лет 7 мес.
Сообщений: 24
Ratio: 14.492
Поблагодарили: 610
0%
ussr.gif
Кто скачивал релиз весом 6,99 Гб ранее, можете встать на раздачу, разница в несколько файлов сканов обложек и дисков, которые можно и не скачивать, а раздавать только сам фильм.

_________________
Всех не пересажаете!
Кот Леон ®
Стаж: 10 лет 7 мес.
Сообщений: 24
Ratio: 14.492
Поблагодарили: 610
0%
ussr.gif
Раздача мультитрекерная. На раздаче всегда кто-то где-то есть. Подключайтесь смело. Если не скачивается, пишите в личку, подключусь именно тут.

_________________
Всех не пересажаете!
Показать сообщения:   
Начать новую тему   Ответить на тему    Торрент-трекер NNM-Club -> Остальное -> hand made * video Часовой пояс: GMT + 3
Страница 1 из 1