Классический форум-трекер
canvas not supported
Нас вместе: 4 150 340

Астерикс и Обеликс. Коллекция мультфильмов / Asterix and Obelix (1967-2006) DVDRip / BDRip


 
 
RSS
Начать новую тему   Ответить на тему    Торрент-трекер NNM-Club -> Мультфильмы -> Зарубежные Мультфильмы (HD*Rip/LQ, DVDRip, SATRip, VHSRip)
Автор Сообщение
Codename87 ®
Стаж: 11 лет 3 мес.
Сообщений: 975
Ratio: 22.506
Раздал: 14.52 TB
Поблагодарили: 13067
100%
Откуда: KGN
russia.gif
Астерикс и Обеликс. Коллекция мультфильмов / Asterix and Obelix (1967-2006) DVDRip / BDRip
Год выпуска: 1967-2006
Страна: Франция, Бельгия, Германия
Жанр: комедия, приключения, мультфильм
Продолжительность: 8 x ~01:00:00

Перевод: профессиональный (многоголосый закадровый), профессиональный (одноголосый закадровый), полное дублирование (СТС)

Описание:
Астерикс— вымышленный галл. Герой ряда европейских комиксов, восьми мультфильмов и четырёх комедийных художественных фильмов, входящих в цикл «Астерикс и Обеликс». В этих произведениях Астерикс и его лучший друг Обеликс, пользуясь сваренным друидом волшебным зельем, ведут борьбу с римлянами, во главе с Цезарем, вторгнувшимися в Галлию.
Русское название: Астерикс из Галлии
Год выпуска: 1967
Страна: Франция, Бельгия
Жанр: комедия, приключения, мультфильм
Продолжительность: 01:04:44

Перевод: профессиональный (многоголосый закадровый) + английский дубляж + немецкий дубляж
Субтитры: русские, английские

Режиссер: Рэй Гуссенс

Описание:
Астерикс с друзьями живут-поживают в Галлии и в ус не дуют. Не знают они, что римский центурион Фонус Болванус задумал разузнать секрет таинственной силы, помогающей им побеждать любого врага. Шпиону римлял Калигуле Минусу обманом удается проникнуть в деревню Астерикса и выведать рецепт волшебного зелья. Но хитрый друид не дремлет...

Качество: DVDRip-AVC
Формат: MKV
Видео: 720x528 (4:3), 25 fps, x264, 2562 kbps avg, 0.270 bit/pixel
Аудио #1: 48 kHz, AC3 Dolby Digital, 2 ch, 192 kbps | Русский
Аудио #2: 48 kHz, AC3 Dolby Digital, 2 ch, 192 kbps | Английский
Аудио #3: 48 kHz, AC3 Dolby Digital, 2 ch, 192 kbps | Немецкий
Субтитры: русские, английские
Код: выделить все
Общее
Полное имя                               : D:\Temp\Астерикс и Обеликс. Коллекция мультфильмов\Астерикс из Галлии (1967).mkv
Формат                                   : Matroska
Версия формата                           : Version 2
Размер файла                             : 1,46 Гбайт
Продолжительность                        : 1 ч. 5 м.
Общий поток                              : 3202 Кбит/сек
Дата кодирования                         : UTC 2010-07-22 08:18:33
Программа кодирования                    : mkvmerge v4.0.0 ('The Stars were mine') built on Jun  6 2010 16:18:42
Библиотека кодирования                   : libebml v1.0.0 + libmatroska v1.0.0

Видео
Идентификатор                            : 1
Формат                                   : AVC
Формат/Информация                        : Advanced Video Codec
Профиль формата                          : High@L4.1
Параметр CABAC формата                   : Да
Параметр ReFrames формата                : 10 кадров
Идентификатор кодека                     : V_MPEG4/ISO/AVC
Продолжительность                        : 1 ч. 5 м.
Битрейт                                  : 2640 Кбит/сек
Ширина                                   : 720 пикселей
Высота                                   : 528 пикселей
Соотношение сторон                       : 4:3
Режим частоты кадров                     : Постоянный
Частота кадров                           : 25,000 кадров/сек
Цветовое пространство                    : YUV
Субдискретизация насыщенности            : 4:2:0
Битовая глубина                          : 8 бит
Тип развёртки                            : Прогрессивная
Бит/(Пиксели*Кадры)                      : 0.278
Размер потока                            : 1,17 Гбайт (80%)
Заголовок                                : Астерикс из Галлии / Asterix the Gaul / Asterix le Gaulois (1967)
Библиотека кодирования                   : x264 core 98 r1649 20cbe10
Настройки программы                      : cabac=1 / ref=10 / deblock=1:-2:-1 / analyse=0x3:0x113 / me=umh / subme=10 / psy=1 / psy_rd=1.00:0.00 / mixed_ref=1 / me_range=32 / chroma_me=1 / trellis=2 / 8x8dct=1 / cqm=0 / deadzone=21,11 / fast_pskip=1 / chroma_qp_offset=-2 / threads=3 / sliced_threads=0 / slices=4 / nr=0 / decimate=1 / interlaced=0 / constrained_intra=0 / bframes=10 / b_pyramid=2 / b_adapt=2 / b_bias=0 / direct=1 / weightb=1 / weightp=2 / keyint=250 / keyint_min=25 / scenecut=40 / intra_refresh=0 / rc_lookahead=40 / rc=2pass / mbtree=1 / bitrate=2640 / ratetol=1.0 / qcomp=0.60 / qpmin=10 / qpmax=51 / qpstep=4 / cplxblur=20.0 / qblur=0.5 / vbv_maxrate=40000 / vbv_bufsize=30000 / ip_ratio=1.40 / aq=1:0.90 / nal_hrd=none
Язык                                     : French
Default                                  : Да
Forced                                   : Нет

Аудио #1
Идентификатор                            : 2
Формат                                   : AC-3
Формат/Информация                        : Audio Coding 3
Расширение режима                        : CM (complete main)
Параметр Endianness формата              : Big
Идентификатор кодека                     : A_AC3
Продолжительность                        : 1 ч. 5 м.
Вид битрейта                             : Постоянный
Битрейт                                  : 192 Кбит/сек
Каналы                                   : 3 канала
Расположение каналов                     : Front: L R, LFE
Частота                                  : 48,0 КГц
Битовая глубина                          : 16 бит
Метод сжатия                             : С потерями
Размер потока                            : 89,4 Мбайт (6%)
Заголовок                                : Многоголосый закадровый
Язык                                     : Russian
Default                                  : Да
Forced                                   : Нет

Аудио #2
Идентификатор                            : 3
Формат                                   : AC-3
Формат/Информация                        : Audio Coding 3
Расширение режима                        : CM (complete main)
Параметр Endianness формата              : Big
Идентификатор кодека                     : A_AC3
Продолжительность                        : 1 ч. 5 м.
Вид битрейта                             : Постоянный
Битрейт                                  : 192 Кбит/сек
Каналы                                   : 2 канала
Расположение каналов                     : Front: L R
Частота                                  : 48,0 КГц
Битовая глубина                          : 16 бит
Метод сжатия                             : С потерями
Размер потока                            : 89,4 Мбайт (6%)
Заголовок                                : Английский дубляж
Язык                                     : English
Default                                  : Нет
Forced                                   : Нет

Аудио #3
Идентификатор                            : 4
Формат                                   : AC-3
Формат/Информация                        : Audio Coding 3
Расширение режима                        : CM (complete main)
Параметр Endianness формата              : Big
Идентификатор кодека                     : A_AC3
Продолжительность                        : 1 ч. 5 м.
Вид битрейта                             : Постоянный
Битрейт                                  : 192 Кбит/сек
Каналы                                   : 3 канала
Расположение каналов                     : Front: L R, LFE
Частота                                  : 48,0 КГц
Битовая глубина                          : 16 бит
Метод сжатия                             : С потерями
Размер потока                            : 89,4 Мбайт (6%)
Заголовок                                : Немецкий дубляж
Язык                                     : German
Default                                  : Нет
Forced                                   : Нет

Текст #1
Идентификатор                            : 5
Формат                                   : UTF-8
Идентификатор кодека                     : S_TEXT/UTF8
Идентификатор кодека/Информация          : UTF-8 Plain Text
Заголовок                                : Русские
Язык                                     : Russian
Default                                  : Нет
Forced                                   : Нет

Текст #2
Идентификатор                            : 6
Формат                                   : UTF-8
Идентификатор кодека                     : S_TEXT/UTF8
Идентификатор кодека/Информация          : UTF-8 Plain Text
Заголовок                                : Английские
Язык                                     : English
Default                                  : Нет
Forced                                   : Нет

Скриншоты:


Русское название: Астерикс и Клеопатра
Год выпуска: 1968
Страна: Франция, Бельгия
Жанр: комедия, приключения, мультфильм
Продолжительность: 01:09:14

Перевод: Профессиональный (многоголосый закадровый)

Режиссер: Рене Госинни, Ли Пайан, Альбер Удерзо

Описание:
Египетская царица Клеопатра была не только очень красива, но и столь же строптива. Ее страшно возмутили слова Цезаря, что египтяне навсегда останутся рабами, поскольку они — народ ленивый и глупый.
Царица решила утереть нос обнаглевшему императору. А помогут ей в этом друид Починикс с друзьями Астериксом и Обеликсом. Однажды они уже победили римские легионы. Что ждёт их в Египте?

Качество: DVDRip
Формат: AVI
Видео: 704x528 (1.33:1), 25 fps, XviD build 64, 2370 kbps avg, 0.26 bit/pixel
Аудио #1: 48 kHz, AC3 Dolby Digital, 2ch, 224kbps | Русский
Аудио #2: 48 kHz, AC3 Dolby Digital, 2ch, 224kbps | Немецкий
Код: выделить все
Общее
Полное имя                               : D:\Temp\Астерикс и Обеликс. Коллекция мультфильмов\Астерикс и Клеопатра (1968).avi
Формат                                   : AVI
Формат/Информация                        : Audio Video Interleave
Размер файла                             : 1,37 Гбайт
Продолжительность                        : 1 ч. 9 м.
Общий поток                              : 2834 Кбит/сек
Программа кодирования                    : VirtualDubMod 1.5.10.3 | www.virtualdub-fr.org || (build 2550/release)
Библиотека кодирования                   : VirtualDubMod build 2550/release

Видео
Идентификатор                            : 0
Формат                                   : MPEG-4 Visual
Профиль формата                          : Advanced Simple@L5
Параметр BVOP формата                    : 1
Параметр QPel формата                    : Нет
Параметр GMC формата                     : Без точки перехода
Параметр матрицы формата                 : Выборочная
Идентификатор кодека                     : XVID
Идентификатор кодека/Подсказка           : XviD
Продолжительность                        : 1 ч. 9 м.
Битрейт                                  : 2372 Кбит/сек
Ширина                                   : 704 пикселя
Высота                                   : 528 пикселей
Соотношение сторон                       : 4:3
Частота кадров                           : 25,000 кадров/сек
Цветовое пространство                    : YUV
Субдискретизация насыщенности            : 4:2:0
Битовая глубина                          : 8 бит
Тип развёртки                            : Прогрессивная
Метод сжатия                             : С потерями
Бит/(Пиксели*Кадры)                      : 0.255
Размер потока                            : 1,15 Гбайт (84%)
Библиотека кодирования                   : XviD 64

Аудио #1
Идентификатор                            : 1
Формат                                   : AC-3
Формат/Информация                        : Audio Coding 3
Расширение режима                        : CM (complete main)
Параметр Endianness формата              : Big
Идентификатор кодека                     : 2000
Продолжительность                        : 1 ч. 9 м.
Вид битрейта                             : Постоянный
Битрейт                                  : 224 Кбит/сек
Каналы                                   : 2 канала
Расположение каналов                     : Front: L R
Частота                                  : 48,0 КГц
Битовая глубина                          : 16 бит
Метод сжатия                             : С потерями
Размер потока                            : 111 Мбайт (8%)
Выравнивание                             : Разделение по промежуткам
Продолжительность промежутка             : 40  мс. (1,00 видеокадр)
Время предзагрузки промежутка            : 500  мс.

Аудио #2
Идентификатор                            : 2
Формат                                   : AC-3
Формат/Информация                        : Audio Coding 3
Расширение режима                        : CM (complete main)
Параметр Endianness формата              : Big
Идентификатор кодека                     : 2000
Продолжительность                        : 1 ч. 9 м.
Вид битрейта                             : Постоянный
Битрейт                                  : 224 Кбит/сек
Каналы                                   : 2 канала
Расположение каналов                     : Front: L R
Частота                                  : 48,0 КГц
Битовая глубина                          : 16 бит
Метод сжатия                             : С потерями
Размер потока                            : 111 Мбайт (8%)
Выравнивание                             : Разделение по промежуткам
Продолжительность промежутка             : 40  мс. (1,00 видеокадр)
Время предзагрузки промежутка            : 500  мс.

Скриншоты:



Русское название: 12 подвигов Астерикса
Год выпуска: 1976
Страна: Франция
Жанр: комедия, приключения, мультфильм
Продолжительность: 01:18:11

Перевод: Профессиональный (многоголосый закадровый)

Режиссер: Рене Госцинни, Альберт Удерзо, Пьер Ватрен

Описание:
50 год до нашей эры. Великому Юлию Цезарю хуже горькой редьки надоели маленькая галльская деревушка, ее веселые и непокорные обитатели и их волшебное зелье. Как знать, может быть они и вправду боги? Но Цезарь не был бы Цезарем, если бы примирился с подобной ересью. Он решает дать Астериксу и его друзьям двенадцать заданий, выполнить которые не под силу ни одному смертному. Сказано-сделано. Конечно, времена Геркулеса давно прошли. Но при чем Геркулес, если есть Астерикс и Обелиск? Именно им вождь деревни Жизнестатистикс и поручает принять августейший вызов. Друзьям же только того и надо — ведь приключения продолжаются, а значит веселая жизнь обеспечена!

Качество: DVDRip
Формат: AVI
Видео кодек: XviD
Видео: 720x432 25.00fps 2304Kbps
Аудио: 48 kHz, AC3 Dolby Digital, 2ch, 192Kbps | Русский
Код: выделить все
Общее
Полное имя                               : D:\Temp\Астерикс и Обеликс. Коллекция мультфильмов\12 подвигов Астерикса (1976).avi
Формат                                   : AVI
Формат/Информация                        : Audio Video Interleave
Размер файла                             : 1,37 Гбайт
Продолжительность                        : 1 ч. 18 м.
Общий поток                              : 2504 Кбит/сек
Программа кодирования                    : VirtualDubMod 1.5.10.2 (build 2542/release)
Библиотека кодирования                   : VirtualDubMod build 2542/release

Видео
Идентификатор                            : 0
Формат                                   : MPEG-4 Visual
Профиль формата                          : Advanced Simple@L5
Параметр BVOP формата                    : 1
Параметр QPel формата                    : Нет
Параметр GMC формата                     : Без точки перехода
Параметр матрицы формата                 : Выборочная
Идентификатор кодека                     : XVID
Идентификатор кодека/Подсказка           : XviD
Продолжительность                        : 1 ч. 18 м.
Битрейт                                  : 2305 Кбит/сек
Ширина                                   : 720 пикселей
Высота                                   : 432 пикселя
Соотношение сторон                       : 1,667
Частота кадров                           : 25,000 кадров/сек
Цветовое пространство                    : YUV
Субдискретизация насыщенности            : 4:2:0
Битовая глубина                          : 8 бит
Тип развёртки                            : Прогрессивная
Метод сжатия                             : С потерями
Бит/(Пиксели*Кадры)                      : 0.296
Размер потока                            : 1,26 Гбайт (92%)
Библиотека кодирования                   : XviD 1.1.2 (UTC 2006-11-01)

Аудио
Идентификатор                            : 1
Формат                                   : AC-3
Формат/Информация                        : Audio Coding 3
Расширение режима                        : CM (complete main)
Параметр Endianness формата              : Big
Идентификатор кодека                     : 2000
Продолжительность                        : 1 ч. 18 м.
Вид битрейта                             : Постоянный
Битрейт                                  : 192 Кбит/сек
Каналы                                   : 3 канала
Расположение каналов                     : Front: L R, LFE
Частота                                  : 48,0 КГц
Битовая глубина                          : 16 бит
Метод сжатия                             : С потерями
Размер потока                            : 107 Мбайт (8%)
Выравнивание                             : Разделение по промежуткам
Продолжительность промежутка             : 96  мс. (2,40 видеокадра)
Время предзагрузки промежутка            : 96  мс.

Скриншоты:



Русское название: Астерикс против Цезаря
Год выпуска: 1985
Страна: Франция
Жанр: комедия, приключения, мультфильм
Продолжительность: 01:16:30

Перевод: Авторский (одноголосый закадровый)

Режиссер: Поль Брицци, Гаэтан Брицци

Описание:
Однажды Обеликс влюбился в прекрасную Панацею. Приглянулась она ему. Казалось бы, дело к свадьбе. Но гордая Панацея не разделила порыв великана друида, положив глаз на красавца Трагикомикса. Обеликс погоревал-погоревал, да и утешился.
До тех пор, пока злобные римляне не похитили предательским образом двоих влюбленных и не увезли их на край света — в Африку. Естественно, друзья не могли сидеть сложа руки. Недолго думая, Астерикс и Обеликс отправляются в новый поход, как всегда, полный смертельных опасностей и веселых приключений. А римская арена по случаю дня рождения Цезаря уже заполнена народом и все ждут жертвоприношения…

Качество: BDRip
Формат: AVI
Видео: 720x432 (1.67:1), 23.976 fps, XviD MPEG-4 ~2315 kbps avg, 0.31 bit/pixel
Аудио #1: 48.0 KHz, AC3, 2 ch, 192 kbps | Русский (Юрий Живов)
Аудио #2: 48.0 KHz, AC3, 2 ch, 192 kbps | Французский (оригинал)
Код: выделить все
Общее
Полное имя                               : D:\Temp\Астерикс и Обеликс. Коллекция мультфильмов\Астерикс против Цезаря (1985).avi
Формат                                   : AVI
Формат/Информация                        : Audio Video Interleave
Размер файла                             : 1,45 Гбайт
Продолжительность                        : 1 ч. 16 м.
Общий поток                              : 2714 Кбит/сек
Название фильма                          : Asterix et la surprise de Cesar
Режиссёр                                 : Gaetan Brizzi, Paul Brizzi
Программа кодирования                    : VirtualDubMod 1.5.10.2 (build 2542/release)

Видео
Идентификатор                            : 0
Формат                                   : MPEG-4 Visual
Профиль формата                          : Advanced Simple@L5
Параметр BVOP формата                    : 2
Параметр QPel формата                    : Нет
Параметр GMC формата                     : Без точки перехода
Параметр матрицы формата                 : Выборочная
Режим смешивания                         : Сжатый битовый поток
Идентификатор кодека                     : DX50
Идентификатор кодека/Подсказка           : DivX 5
Продолжительность                        : 1 ч. 16 м.
Битрейт                                  : 2316 Кбит/сек
Ширина                                   : 720 пикселей
Высота                                   : 432 пикселя
Соотношение сторон                       : 1,667
Частота кадров                           : 23,976 кадра/сек
Цветовое пространство                    : YUV
Субдискретизация насыщенности            : 4:2:0
Битовая глубина                          : 8 бит
Тип развёртки                            : Прогрессивная
Метод сжатия                             : С потерями
Бит/(Пиксели*Кадры)                      : 0.311
Размер потока                            : 1,24 Гбайт (85%)
Библиотека кодирования                   : XviD 63

Аудио #1
Идентификатор                            : 1
Формат                                   : AC-3
Формат/Информация                        : Audio Coding 3
Расширение режима                        : CM (complete main)
Параметр Endianness формата              : Big
Идентификатор кодека                     : 2000
Продолжительность                        : 1 ч. 16 м.
Вид битрейта                             : Постоянный
Битрейт                                  : 192 Кбит/сек
Каналы                                   : 2 канала
Расположение каналов                     : Front: L R
Частота                                  : 48,0 КГц
Битовая глубина                          : 16 бит
Метод сжатия                             : С потерями
Размер потока                            : 105 Мбайт (7%)
Выравнивание                             : Разделение по промежуткам
Продолжительность промежутка             : 42  мс. (1,00 видеокадр)
Время предзагрузки промежутка            : 500  мс.

Аудио #2
Идентификатор                            : 2
Формат                                   : AC-3
Формат/Информация                        : Audio Coding 3
Расширение режима                        : CM (complete main)
Параметр Endianness формата              : Big
Идентификатор кодека                     : 2000
Продолжительность                        : 1 ч. 16 м.
Вид битрейта                             : Постоянный
Битрейт                                  : 192 Кбит/сек
Каналы                                   : 2 канала
Расположение каналов                     : Front: L R
Частота                                  : 48,0 КГц
Битовая глубина                          : 16 бит
Метод сжатия                             : С потерями
Размер потока                            : 105 Мбайт (7%)
Выравнивание                             : Разделение по промежуткам
Продолжительность промежутка             : 42  мс. (1,00 видеокадр)
Время предзагрузки промежутка            : 500  мс.

Скриншоты:



Русское название: Астерикс в Британии
Год выпуска: 1986
Страна: Франция
Жанр: комедия, приключения, мультфильм
Продолжительность: 01:18:39

Перевод: Профессиональный (многоголосый закадровый)

Режиссер: Пино Ван Ламсвеерде

Описание:
Юлий Цезарь не на шутку разозлился на британцев, которые не только не сдавались римским войскам, но и неоднократно помогали в битвах свободолюбивым галлам. Выход один — война. Тем более что британцы воюют лишь пять дней в неделю, да и то с перерывом для чаепития. Хитрый Цезарь вновь забыл, что где-то поблизости, — всего лишь через пролив, — проживает доблестный Астерикс с друзьями. Только им известен секрет таинственного зелья... А то, что подходит для галлов, подойдет и для британцев!

Качество: BDRip
Формат: AVI
Видео: 720x432 (1.67:1), 23.976 fps, XviD MPEG-4 ~2239 kbps avg, 0.30 bit/pixel
Аудио #1: 48 kHz, AC3 Dolby Digital, 2/0 (L,R) ch, ~192 kbps [Русский (многоголосый закадровый)]
Аудио #2: 48 kHz, AC3 Dolby Digital, 2/0 (L,R) ch, ~192 kbps [Французский (оригинал)]
Код: выделить все
Общее
Полное имя                               : D:\Temp\Астерикс и Обеликс. Коллекция мультфильмов\Астерикс в Британии (1986).avi
Формат                                   : AVI
Формат/Информация                        : Audio Video Interleave
Размер файла                             : 1,45 Гбайт
Продолжительность                        : 1 ч. 18 м.
Общий поток                              : 2638 Кбит/сек
Название фильма                          : Asterix chez les Bretons
Режиссёр                                 : Pino Van Lamsweerde
Программа кодирования                    : VirtualDubMod 1.5.10.2 (build 2542/release)

Видео
Идентификатор                            : 0
Формат                                   : MPEG-4 Visual
Профиль формата                          : Advanced Simple@L5
Параметр BVOP формата                    : 2
Параметр QPel формата                    : Нет
Параметр GMC формата                     : Без точки перехода
Параметр матрицы формата                 : Выборочная
Режим смешивания                         : Сжатый битовый поток
Идентификатор кодека                     : DX50
Идентификатор кодека/Подсказка           : DivX 5
Продолжительность                        : 1 ч. 18 м.
Битрейт                                  : 2240 Кбит/сек
Ширина                                   : 720 пикселей
Высота                                   : 432 пикселя
Соотношение сторон                       : 1,667
Частота кадров                           : 23,976 кадра/сек
Цветовое пространство                    : YUV
Субдискретизация насыщенности            : 4:2:0
Битовая глубина                          : 8 бит
Тип развёртки                            : Прогрессивная
Метод сжатия                             : С потерями
Бит/(Пиксели*Кадры)                      : 0.300
Размер потока                            : 1,23 Гбайт (85%)
Библиотека кодирования                   : XviD 63

Аудио #1
Идентификатор                            : 1
Формат                                   : AC-3
Формат/Информация                        : Audio Coding 3
Расширение режима                        : CM (complete main)
Параметр Endianness формата              : Big
Идентификатор кодека                     : 2000
Продолжительность                        : 1 ч. 18 м.
Вид битрейта                             : Постоянный
Битрейт                                  : 192 Кбит/сек
Каналы                                   : 2 канала
Расположение каналов                     : Front: L R
Частота                                  : 48,0 КГц
Битовая глубина                          : 16 бит
Метод сжатия                             : С потерями
Размер потока                            : 108 Мбайт (7%)
Выравнивание                             : Разделение по промежуткам
Продолжительность промежутка             : 42  мс. (1,00 видеокадр)
Время предзагрузки промежутка            : 500  мс.

Аудио #2
Идентификатор                            : 2
Формат                                   : AC-3
Формат/Информация                        : Audio Coding 3
Расширение режима                        : CM (complete main)
Параметр Endianness формата              : Big
Идентификатор кодека                     : 2000
Продолжительность                        : 1 ч. 18 м.
Вид битрейта                             : Постоянный
Битрейт                                  : 192 Кбит/сек
Каналы                                   : 2 канала
Расположение каналов                     : Front: L R
Частота                                  : 48,0 КГц
Битовая глубина                          : 16 бит
Метод сжатия                             : С потерями
Размер потока                            : 108 Мбайт (7%)
Выравнивание                             : Разделение по промежуткам
Продолжительность промежутка             : 42  мс. (1,00 видеокадр)
Время предзагрузки промежутка            : 500  мс.

Скриншоты:



Русское название: Большой бой Астерикса
Год выпуска: 1986
Страна: Франция, Германия
Жанр: комедия, приключения, мультфильм
Продолжительность: 01:18:39

Перевод: Профессиональный (дублированный)

Режиссер: Филипп Гримон

Описание:
Как известно, настоящему галлу все нипочем. Он и в огне не горит, и в воде не тонет. Но на этот раз даже Астериксу приходится несладко: ведь на его деревню обрушивается ураган невиданной силы. Помочь нашему герою может только друид Починикс, на которого, как назло, только что свалился огромный валун. Бедняга никого не узнает…Обо всем этом становится известно Юлию Цезарю — а уж он спит и видит, кого бы еще завоевать. Впереди большой бой — и наши веселые герои выходят на него с открытым забралом.

Качество: BDRip
Формат: AVI
Видео: 720x384 (1.88:1), 23.976 fps, XviD build 65 ~2397 kbps avg, 0.36 bit/pixel
Аудио: 48 kHz, AC3 Dolby Digital, 2/0 (L,R) ch, ~192 kbps | Русский
Код: выделить все
Общее
Полное имя                               : D:\Temp\Астерикс и Обеликс. Коллекция мультфильмов\Большой бой Астерикса (1989).avi
Формат                                   : AVI
Формат/Информация                        : Audio Video Interleave
Размер файла                             : 1,45 Гбайт
Продолжительность                        : 1 ч. 19 м.
Общий поток                              : 2599 Кбит/сек
Программа кодирования                    : VirtualDubMod 1.5.10.3 (build 2550/release)
Библиотека кодирования                   : VirtualDubMod build 2550/release

Видео
Идентификатор                            : 0
Формат                                   : MPEG-4 Visual
Профиль формата                          : Advanced Simple@L5
Параметр BVOP формата                    : 1
Параметр QPel формата                    : Нет
Параметр GMC формата                     : Без точки перехода
Параметр матрицы формата                 : Default (H.263)
Идентификатор кодека                     : XVID
Идентификатор кодека/Подсказка           : XviD
Продолжительность                        : 1 ч. 19 м.
Битрейт                                  : 2397 Кбит/сек
Ширина                                   : 720 пикселей
Высота                                   : 384 пикселя
Соотношение сторон                       : 1,85:1
Частота кадров                           : 23,976 кадра/сек
Цветовое пространство                    : YUV
Субдискретизация насыщенности            : 4:2:0
Битовая глубина                          : 8 бит
Тип развёртки                            : Прогрессивная
Метод сжатия                             : С потерями
Бит/(Пиксели*Кадры)                      : 0.362
Размер потока                            : 1,34 Гбайт (92%)
Библиотека кодирования                   : XviD 65

Аудио
Идентификатор                            : 1
Формат                                   : AC-3
Формат/Информация                        : Audio Coding 3
Расширение режима                        : CM (complete main)
Параметр Endianness формата              : Big
Идентификатор кодека                     : 2000
Продолжительность                        : 1 ч. 19 м.
Вид битрейта                             : Постоянный
Битрейт                                  : 192 Кбит/сек
Каналы                                   : 2 канала
Расположение каналов                     : Front: L R
Частота                                  : 48,0 КГц
Битовая глубина                          : 16 бит
Метод сжатия                             : С потерями
Размер потока                            : 110 Мбайт (7%)
Выравнивание                             : Разделение по промежуткам
Продолжительность промежутка             : 42  мс. (1,00 видеокадр)
Время предзагрузки промежутка            : 500  мс.

Скриншоты:



Русское название: Астерикс завоёвывает Америку
Год выпуска: 1994
Страна: Германия, Франция
Жанр: комедия, приключения, мультфильм
Продолжительность: 01:24:45

Перевод: Профессиональный (дублированный)

Режиссер: Герхард Хан

Описание:
«Вчера будет завтра позавчера» — так говаривали мудрецы-друиды в далекие-далекие времена, когда люди считали, что Земля больше всего похожа на пиццу. Тогда был еще жив Юлий Цезарь, которому и пришла в голову мысль, как римлянам победить свободолюбивых друидов, проживавших в маленькой галльской деревушке.
По приказу императора центурион Люций похитил друида Починикса и отправил его вместе с псом Догматиксом на край света. Но за ними следом увязалась славная парочка Астерикс и Обеликс…

Качество: BDRip
Формат: AVI
Видео: 720x384 (1.88:1), 23.976 fps, XviD build 50 ~2259 kbps avg, 0.34 bit/pixel
Аудио: 48 kHz, AC3 Dolby Digital, 2/0 (L,R) ch, ~192 kbps | Русский
Код: выделить все
Общее
Полное имя                               : D:\Temp\Астерикс и Обеликс. Коллекция мультфильмов\Астерикс завоевывает Америку (1994).avi
Формат                                   : AVI
Формат/Информация                        : Audio Video Interleave
Размер файла                             : 1,46 Гбайт
Продолжительность                        : 1 ч. 24 м.
Общий поток                              : 2461 Кбит/сек
Программа кодирования                    : VirtualDubMod 1.5.10.3 (build 2550/release)
Библиотека кодирования                   : VirtualDubMod build 2550/release

Видео
Идентификатор                            : 0
Формат                                   : MPEG-4 Visual
Профиль формата                          : Advanced Simple@L5
Параметр BVOP формата                    : 1
Параметр QPel формата                    : Нет
Параметр GMC формата                     : Без точки перехода
Параметр матрицы формата                 : Default (H.263)
Идентификатор кодека                     : XVID
Идентификатор кодека/Подсказка           : XviD
Продолжительность                        : 1 ч. 24 м.
Битрейт                                  : 2260 Кбит/сек
Ширина                                   : 720 пикселей
Высота                                   : 384 пикселя
Соотношение сторон                       : 1,85:1
Частота кадров                           : 23,976 кадра/сек
Цветовое пространство                    : YUV
Субдискретизация насыщенности            : 4:2:0
Битовая глубина                          : 8 бит
Тип развёртки                            : Прогрессивная
Метод сжатия                             : С потерями
Бит/(Пиксели*Кадры)                      : 0.341
Размер потока                            : 1,34 Гбайт (92%)
Библиотека кодирования                   : XviD 1.2.1 (UTC 2008-12-04)

Аудио
Идентификатор                            : 1
Формат                                   : AC-3
Формат/Информация                        : Audio Coding 3
Расширение режима                        : CM (complete main)
Параметр Endianness формата              : Big
Идентификатор кодека                     : 2000
Продолжительность                        : 1 ч. 24 м.
Вид битрейта                             : Постоянный
Битрейт                                  : 192 Кбит/сек
Каналы                                   : 2 канала
Расположение каналов                     : Front: L R
Частота                                  : 48,0 КГц
Битовая глубина                          : 16 бит
Метод сжатия                             : С потерями
Размер потока                            : 116 Мбайт (8%)
Выравнивание                             : Разделение по промежуткам
Продолжительность промежутка             : 42  мс. (1,00 видеокадр)
Время предзагрузки промежутка            : 500  мс.

Скриншоты:



Русское название: Астерикс и викинги
Год выпуска: 2006
Страна: Дания, Франция
Жанр: комедия, приключения, мультфильм
Продолжительность: 01:18:13

Перевод: Профессиональный (полное дублирование)

Режиссер: Стефан Фьелдмарк

Описание:
Астерикс и его друг Обеликс впервые в своей жизни должны встретиться с викингами. Бесстрашные воины из северной страны выкрали племянника вождя галлов, юного Задиру. Миссия чрезвычайно опасна, так как викинги слывут отчаянными и безжалостными воинами…

Качество: BDRip
Формат: AVI
Видео кодек: XviD, build 50 codec
Видео: 704x384 (1.83:1), 24 fps, XviD build 50 ~1874 kbps avg, 0.29 bit/pixel
Аудио #1: 48 kHz, AC3 Dolby Digital, 3/2 (L,C,R,l,r) + LFE ch, ~384.00 kbps | Русский
Аудио #2: 48 kHz, AC3 Dolby Digital, 3/2 (L,C,R,l,r) + LFE ch, ~384.00 kbps | Аглийский
Код: выделить все
Общее
Полное имя                               : D:\Temp\Астерикс и Обеликс. Коллекция мультфильмов\Астерикс и викинги (2006).avi
Формат                                   : AVI
Формат/Информация                        : Audio Video Interleave
Размер файла                             : 1,45 Гбайт
Продолжительность                        : 1 ч. 18 м.
Общий поток                              : 2657 Кбит/сек
Название фильма                          : Астерикс и викинги / Aste'rix et les Vikings (2006) BDRip
Режиссёр                                 : Gellard
Жанр                                     : Adventure
Программа кодирования                    : VirtualDubModRus 1.5.10.2 (build 2542/release)
Формат оригинала/Имя                     : Cartoon

Видео
Идентификатор                            : 0
Формат                                   : MPEG-4 Visual
Профиль формата                          : Advanced Simple@L5
Параметр BVOP формата                    : 1
Параметр QPel формата                    : Нет
Параметр GMC формата                     : Без точки перехода
Параметр матрицы формата                 : Выборочная
Идентификатор кодека                     : XVID
Идентификатор кодека/Подсказка           : XviD
Продолжительность                        : 1 ч. 18 м.
Битрейт                                  : 1875 Кбит/сек
Ширина                                   : 704 пикселя
Высота                                   : 384 пикселя
Соотношение сторон                       : 1,85:1
Частота кадров                           : 24,000 кадра/сек
Цветовое пространство                    : YUV
Субдискретизация насыщенности            : 4:2:0
Битовая глубина                          : 8 бит
Тип развёртки                            : Прогрессивная
Метод сжатия                             : С потерями
Бит/(Пиксели*Кадры)                      : 0.289
Размер потока                            : 1,02 Гбайт (71%)
Библиотека кодирования                   : XviD 1.2.1 (UTC 2008-12-04)

Аудио #1
Идентификатор                            : 1
Формат                                   : AC-3
Формат/Информация                        : Audio Coding 3
Расширение режима                        : CM (complete main)
Параметр Endianness формата              : Big
Идентификатор кодека                     : 2000
Продолжительность                        : 1 ч. 18 м.
Вид битрейта                             : Постоянный
Битрейт                                  : 384 Кбит/сек
Каналы                                   : 6 каналов
Расположение каналов                     : Front: L C R, Side: L R, LFE
Частота                                  : 48,0 КГц
Битовая глубина                          : 16 бит
Метод сжатия                             : С потерями
Размер потока                            : 215 Мбайт (14%)
Выравнивание                             : Разделение по промежуткам
Продолжительность промежутка             : 42  мс. (1,00 видеокадр)
Время предзагрузки промежутка            : 500  мс.

Аудио #2
Идентификатор                            : 2
Формат                                   : AC-3
Формат/Информация                        : Audio Coding 3
Расширение режима                        : CM (complete main)
Параметр Endianness формата              : Big
Идентификатор кодека                     : 2000
Продолжительность                        : 1 ч. 18 м.
Вид битрейта                             : Постоянный
Битрейт                                  : 384 Кбит/сек
Каналы                                   : 6 каналов
Расположение каналов                     : Front: L C R, Side: L R, LFE
Частота                                  : 48,0 КГц
Битовая глубина                          : 16 бит
Метод сжатия                             : С потерями
Размер потока                            : 215 Мбайт (14%)
Выравнивание                             : Разделение по промежуткам
Продолжительность промежутка             : 42  мс. (1,00 видеокадр)
Время предзагрузки промежутка            : 500  мс.

Скриншоты:



Скриншоты:

Время раздачи: После 16:00 (время Московское). Выходные: по мере возможности.
[NNM-Club.me]_Asteriks i Obeliks. Kollektsiya mul'tfil'mov.torrent
 Торрент: Платиновая раздача  Зарегистрирован
 
Скачать


Примагнититься
 Зарегистрирован:   06 Янв 2014 18:44:35
 Размер:   11.5 GB  (
 Рейтинг:   4.9 (Голосов: 303)
 Поблагодарили:   1018
 Проверка:   Оформление проверено модератором 07 Янв 2014 22:46:54
Как cкачать  ·  Как раздать  ·  Правильно оформить  ·  Поднять ратио!  
Prinkos-1
Стаж: 9 лет 7 мес.
Сообщений: 167
Ratio: 6.863
Раздал: 5.471 TB
Поблагодарили: 207
100%
nnm-club.gif
Великолепно!

 !  Примечание от denver7979:
У нас русскоязычный трекер.
Michael CORVUS
Стаж: 9 лет 11 мес.
Сообщений: 9
Ratio: 21.081
Раздал: 4.483 TB
100%
Откуда: Alchevsk
ukraine.gif
огромное спасибо за сборку )
vov1960
Стаж: 10 лет 1 мес.
Сообщений: 2
Ratio: 16.641
100%
russia.gif
Спасибо за труды! Хороший сборник.
rebels
Стаж: 11 лет 1 мес.
Сообщений: 15
Ratio: 1.166
100%
если есть возможность, прошу добавить английскую дорожку в каждую серию, где она отсутствует
Artemreal2008
Стаж: 10 лет 2 мес.
Сообщений: 15
Ratio: 10.512
100%
Ставлю Спасибо!!!!!
sanya123123
Стаж: 10 лет 2 мес.
Сообщений: 22
Ratio: 3.61
100%
Откуда: 123
russia.gif
Спасибо!!!!!!!
kvakin6
Стаж: 11 лет 2 мес.
Сообщений: 2
Ratio: 8.972
100%
Откуда: Тверь
russia.gif
Спасибо!!!!!!!!
fcsmtheser
Стаж: 10 лет
Сообщений: 307
Ratio: 0.871
100%
russia.gif
kvakin6 писал(а): Перейти к сообщению
Спасибо!!!!!!!!


Нажмите уже кнопку "спасибо" и не засоряйте комментарии. А то кроме "спасибо" нет отзывов.
Mercuri1
Стаж: 7 лет 7 мес.
Сообщений: 28
Ratio: 3.861
100%
Ну конечно спасибо раздающему.. Единственная непонятка когда все авишные файлы и единственный МКV Не совсем удобно для просмотра
Codename87 ®
Стаж: 11 лет 3 мес.
Сообщений: 975
Ratio: 22.506
Раздал: 14.52 TB
Поблагодарили: 13067
100%
Откуда: KGN
russia.gif
Mercuri1
Сам я ничего не перекодировал, нет на это времени. Да и честно говоря, не мастер я в этом деле. Все серии взяты с просторов инета в таком виде, в каком они есть, и собраны в одном месте. Всё, что я постарался сделать, это собрать лучшее качество, по соотношению: размер / качество картинки.

_________________
If life is doing you good, enjoy the moment...
тот самый Месье
Стаж: 7 лет 1 мес.
Сообщений: 4
Ratio: 41.076
100%
Жаль так мало одноголосых переводов.
Zluk2010
 
Стаж: 10 лет 10 мес.
Сообщений: 82
Ratio: 4.778
Поблагодарили: 2
100%
Откуда: Москва
russia.gif
Класс !
Semenaka
Стаж: 8 лет 10 мес.
Сообщений: 95
Ratio: 1.485
78.08%
Советую еще посмотреть фильмы с Астериксом и Обеликсом!!! Отличная подборка актеров со своим причудлевым юмором и классной озвучкой!!!
Фильмы:

Астерикс и Обеликс против Цезаря

Астерикс и Обеликс: Миссия Клеопатра

Астерикс на Олимпийских играх
Показать сообщения:   
Начать новую тему   Ответить на тему    Торрент-трекер NNM-Club -> Мультфильмы -> Зарубежные Мультфильмы (HD*Rip/LQ, DVDRip, SATRip, VHSRip) Часовой пояс: GMT + 3
Страница 1 из 1